Torrent’s details
Name The Vampire Next Door (2024) 720p WEBRip-[Flicker.pics]
Torrent The Vampire Next Door (2024) 720p WEBRip-[Flicker.pics]
Info Hash 058f3c78469376252946c6744a71d5c4cdd2e624
Who thanked
Send Points In Total 0 Points given to this torrent of which 0 from you.

By clicking on the coins you can give points to the uploader of this torrent.

           10 Points   20 Points   50 Points   100 Points   200 Points   500 Points   1000 Points
Image
Description The Vampire Next Door (2024) 720p WEBRip-[Flicker.pics]

Introverted Cameron, is desperately in love with his high school crush Diane. But his romantic pursuit is halted when Victoria, a female vampire moves in next door. Cameron soon discovers he's in the middle of a life-and-death adventure.

General
Complete name: The Vampire Next Door (2024) 720p WEBRip-[Flicker.pics].mp4
Format: MPEG-4
Format profile: Base Media
Codec ID: isom (isom/iso2/avc1/mp41)
File size: 1 020 MiB
Duration: 1 h 50 min
Overall bit rate: 1 285 kb/s
Writing application: Lavf59.33.100

Video
ID: 1
Format: AVC
Format/Info: Advanced Video Codec
Format profile: High@L4.1
Format settings: CABAC / 4 Ref Frames
Format settings, CABAC: Yes
Format settings, Reference frames: 4 frames
Codec ID: avc1
Codec ID/Info: Advanced Video Coding
Duration: 1 h 50 min
Bit rate: 1 150 kb/s
Maximum bit rate: 31.2 Mb/s
Width: 1 280 pixels
Height: 544 pixels
Display aspect ratio: 2.35:1
Original display aspect ratio: 2.35:1
Frame rate mode: Constant
Frame rate: 23.976 (24000/1001) FPS
Color space: YUV
Chroma subsampling: 4:2:0
Bit depth: 8 bits
Scan type: Progressive
Bits/(Pixel*Frame): 0.069
Stream size: 913 MiB (89%)
Writing library: x264 core 164
Encoding settings: cabac=1 / ref=4 / deblock=1:-1:-1 / analyse=0x3:0x133 / me=umh / subme=9 / psy=1 / psy_rd=1.00:0.15 / mixed_ref=1 / me_range=24 / chroma_me=1 / trellis=2 / 8x8dct=1 / cqm=0 / deadzone=21,11 / fast_pskip=0 / chroma_qp_offset=-3 / threads=17 / lookahead_threads=1 / sliced_threads=0 / nr=0 / decimate=1 / interlaced=0 / bluray_compat=0 / constrained_intra=0 / bframes=3 / b_pyramid=2 / b_adapt=2 / b_bias=0 / direct=3 / weightb=1 / open_gop=0 / weightp=2 / keyint=250 / keyint_min=23 / scenecut=40 / intra_refresh=0 / rc_lookahead=60 / rc=2pass / mbtree=1 / bitrate=1150 / ratetol=1.0 / qcomp=0.60 / qpmin=0 / qpmax=69 / qpstep=4 / cplxblur=20.0 / qblur=0.5 / vbv_maxrate=31250 / vbv_bufsize=31250 / nal_hrd=none / filler=0 / ip_ratio=1.40 / aq=1:1.00
Color range: Limited
Color primaries: BT.709
Transfer characteristics: BT.709
Matrix coefficients: BT.709
Codec configuration box: avcC

Audio
ID: 2
Format: AAC LC
Format/Info: Advanced Audio Codec Low Complexity
Codec ID: mp4a-40-2
Duration: 1 h 50 min
Source duration: 1 h 50 min
Bit rate mode: Constant
Bit rate: 132 kb/s
Channel(s): 2 channels
Channel layout: L R
Sampling rate: 48.0 kHz
Frame rate: 46.875 FPS (1024 SPF)
Compression mode: Lossy
Stream size: 103 MiB (10%)
Source stream size: 103 MiB (10%)
Default: Yes
Alternate group: 1
Movie Details
Screenshots
Category Movie/WeBRip
Rating N/A
Size 1,020.26 MB
Show/Hide Files
2 files
AddDate 18/01/2024
Viewed 36 times
Down 2 times
peers
seeds: 2, leechers: 0 = 2 peers   
Bookmark Bookmark This Torrent
Report Torrent
Similar torrents
Name Added Size Seeders Leechers
Interview.With.The.Vampire.S01.COMPLETE.720p.AMZN.WEBRip.x264-GalaxyTV 09/07/2023 1.86 GB 45 9
The Vampire Next Door (2024) 1080p Flicker pics 19/01/2024 2.05 GB 1 0


User
Comment:







smile1.gif wink.gif grin.gif tongue.gif sad.gif cry.gif noexpression.gif confused.gif ohmy.gif cool1.gif angel.gif sleep.gif angry.gif smile2.gif laugh.gif cool2.gif
More Emoticons
   




   Our Partners