Torrent’s details
Name Married And Cheating [Digital Sin 2022] XXX WEB-DL SPLIT SCENES
Torrent Married And Cheating [Digital Sin 2022] XXX WEB-DL SPLIT SCENES
Info Hash bf2c0b9461e87e5c4acf6f182e6728b0cc2f9d06
Who thanked
Send Points In Total 0 Points given to this torrent of which 0 from you.

By clicking on the coins you can give points to the uploader of this torrent.

           10 Points   20 Points   50 Points   100 Points   200 Points   500 Points   1000 Points
Image
Description Married And Cheating [Digital Sin 2022] XXX WEB-DL SPLIT SCENES
Video
ID : 1
Format : AVC
Format/Info : Advanced Video Codec
Format profile : High@L3.1
Format settings : CABAC / 5 Ref Frames
Format settings, CABAC : Yes
Format settings, Reference frames : 5 frames
Codec ID : avc1
Codec ID/Info : Advanced Video Coding
Duration : 26 min 41 s
Bit rate : 1 028 kb/s
Width : 854 pixels
Height : 480 pixels
Display aspect ratio : 16:9
Frame rate mode : Constant
Frame rate : 30.000 FPS
Color space : YUV
Chroma subsampling : 4:2:0
Bit depth : 8 bits
Scan type : Progressive
Bits/(Pixel*Frame) : 0.084
Stream size : 196 MiB (88%)
Writing library : x264 core 164 r3065 ae03d92
Encoding settings : cabac=1 / ref=5 / deblock=1:0:0 / analyse=0x3:0x113 / me=hex / subme=8 / psy=1 / psy_rd=1.00:0.00 / mixed_ref=1 / me_range=16 / chroma_me=1 / trellis=2 / 8x8dct=1 / cqm=0 / deadzone=21,11 / fast_pskip=1 / chroma_qp_offset=-2 / threads=12 / lookahead_threads=2 / sliced_threads=0 / nr=0 / decimate=1 / interlaced=0 / bluray_compat=0 / constrained_intra=0 / bframes=3 / b_pyramid=2 / b_adapt=1 / b_bias=0 / direct=3 / weightb=1 / open_gop=0 / weightp=2 / keyint=300 / keyint_min=30 / scenecut=40 / intra_refresh=0 / rc_lookahead=50 / rc=abr / mbtree=1 / bitrate=1024 / ratetol=1.0 / qcomp=0.60 / qpmin=0 / qpmax=69 / qpstep=4 / vbv_maxrate=17500 / vbv_bufsize=17500 / nal_hrd=none / filler=0 / ip_ratio=1.40 / aq=1:1.00
Encoded date : UTC 2023-04-28 17:40:29
Tagged date : UTC 2023-04-28 17:40:29
Color range : Limited
Color primaries : BT.709
Transfer characteristics : BT.709
Matrix coefficients : BT.709
Codec configuration box : avcC

Audio
ID : 2
Format : AAC LC
Format/Info : Advanced Audio Codec Low Complexity
Codec ID : mp4a-40-2
Duration : 26 min 41 s
Source duration : 26 min 41 s
Bit rate mode : Constant
Bit rate : 128 kb/s
Channel(s) : 2 channels
Channel layout : L R
Sampling rate : 44.1 kHz
Frame rate : 43.066 FPS (1024 SPF)
Compression mode : Lossy
Stream size : 24.5 MiB (11%)
Source stream size : 24.5 MiB (11%)
Title : Stereo
Language : English
Default : Yes
Alternate group : 1
Movie Details
Screenshots
Category Movie/XXX
Rating N/A
Size 880.70 MB
Show/Hide Files
5 files
AddDate 30/04/2023
Viewed 132 times
Down 12645 times
peers
seeds: 2259, leechers: 1091 = 3350 peers   
Bookmark Bookmark This Torrent
Report Torrent
Similar torrents
Name Added Size Seeders Leechers
Married... with Children (1987) S01-S11 (480p DVD x265 HEVC 10bit AAC 2.0 Silence) REPACK [QxR] 10/07/2023 59.82 GB 67 100
Married.by.Mistake.2023.720p.WEBRip.800MB.x264 [Movieworld.pics] 07/03/2023 796.62 MB 58 74
Announce URLSeedersLeechersDownloaded
http://tracker.trackerfix.com:80/announce000
udp://9.rarbg.me:2910/announce000
udp://9.rarbg.to:2840/announce000
udp://tracker.thinelephant.org:12740/announce000
udp://tracker.tallpenguin.org:15780/announce000
udp://open.stealth.si:80/announce6403133710
udp://tracker.internetwarriors.net:1337/announce000
udp://tracker.openbittorrent.com:1337/announce49223810
udp://tracker.opentrackr.org:1337/announce000
udp://opentor.org:2710/announce000
udp://tracker.tiny-vps.com:6969/announce2712103116
udp://tracker.torrent.eu.org:451/announce5231435809
udp://explodie.org:6969/announce3331870
Last Update 01/05/2023 18:01:55 (01/05/2023 18:01:55)


User
Comment:







smile1.gif wink.gif grin.gif tongue.gif sad.gif cry.gif noexpression.gif confused.gif ohmy.gif cool1.gif angel.gif sleep.gif angry.gif smile2.gif laugh.gif cool2.gif
More Emoticons
   




   Our Partners